+ ShareSpark.net »  :::: Bollywood Zone » Bollywood Movies (Original Rips)
|- Pyaar Ke Side Effect (2006) Hindi 720p Bluray x264 AC3 DD 5.1 ESubs - Sun George


100% Recharge Offer

Pyaar Ke Side Effect (2006) Hindi 720p Bluray x264 AC3 DD 5.1 ESubs - Sun George

0 Members and 1 Guest are viewing this topic.

February 12, 2019, 05:44:00 PM
  • Conqueror
  • Legend Member
  • *****
  • Topic Author
  • Thank You: 5644
  • Reputation: 1180
  • Activity:
    100%
  • Country: np
  • Posts: 2149
  • Topics: 1746
  • Join Date: Jul 2016
  • Love Forever !!
Pyaar Ke Side Effect (2006) Hindi 720p Bluray x264 AC3 DD 5.1 ESubs - Sun George






Source : DTOne (Thanks) !!
Format                      : Matroska
Format version              : Version 4 / Version 2
File size                   : 1.74 GiB
Duration                    : 2 h 12 min
Overall bit rate            : 1 880 kb/s

Video
ID                          : 1
Format                      : AVC
Format/Info                 : Advanced Video Codec
Format profile              : [email protected]
Format settings             : CABAC / 5 Ref Frames
Format settings, CABAC      : Yes
Format settings, ReFrames   : 5 frames
Codec ID                    : V_MPEG4/ISO/AVC
Duration                    : 2 h 12 min
Bit rate                    : 1 500 kb/s
Width                       : 1 280 pixels
Height                      : 544 pixels
Display aspect ratio        : 2.35:1
Frame rate mode             : Constant
Frame rate                  : 24.000 FPS
Color space                 : YUV
Chroma subsampling          : 4:2:0
Bit depth                   : 8 bits
Scan type                   : Progressive
Bits/(Pixel*Frame)          : 0.090
Stream size                 : 1.38 GiB (79%)

Audio
ID                          : 2
Format                      : AC-3
Format/Info                 : Audio Coding 3
Commercial name             : Dolby Digital
Codec ID                    : A_AC3
Duration                    : 2 h 12 min
Bit rate mode               : Constant
Bit rate                    : 384 kb/s
Channel(s)                  : 6 channels
Channel layout              : L R C LFE Ls Rs
Sampling rate               : 48.0 kHz
Frame rate                  : 31.250 FPS (1536 SPF)
Bit depth                   : 16 bits
Compression mode            : Lossy
Stream size                 : 365 MiB (20%)
Title                       : Sun George
Language                    : Hindi
Service kind                : Complete Main
Default                     : Yes
Forced                      : No

Text
ID                          : 3
Format                      : PGS
Muxing mode                 : zlib
Codec ID                    : S_HDMV/PGS
Codec ID/Info               : Picture based subtitle format used on BDs/HD-DVDs
Duration                    : 2 h 10 min
Bit rate                    : 31.0 kb/s
Count of elements           : 4014
Stream size                 : 29.0 MiB (2%)
Language                    : English
Default                     : Yes
Forced                      : Yes













 :download:


Share this topic on FacebookShare this topic on GoogleShare this topic on MySpaceShare this topic on TwitterShare this topic on Yahoo




Tags:
 

Related Topics





Back to top