+ ShareSpark.net »  :::: Bollywood Zone » Bollywood Movies (Original Rips) » High Resolution Movies
|- Andhadhun 2018 Hindi 1080p BluRay DD 5.1 x264 ESub [MW]


10% SBI and 10% Discount

Andhadhun 2018 Hindi 1080p BluRay DD 5.1 x264 ESub [MW]

0 Members and 1 Guest are viewing this topic.

February 12, 2019, 01:01:17 PM
  • ***************
  • Conqueror
  • Legend Member
  • *****
  • Topic Author
  • Thank You: 1993
  • Reputation: 569
  • Activity:
    100%
  • Country: pk
  • Posts: 2338
  • Topics: 1599
  • Join Date: Mar 2015
  • =$ Success Never Ends $=
Andhadhun 2018 Hindi 1080p BluRay DD 5.1 x264 ESub [MW]








General
Format : Matroska
Format version : Version 4
File size : 2.31 GiB
Duration : 2 h 19 min
Overall bit rate : 2 365 kb/s

Video
ID : 1
Format : AVC
Format/Info : Advanced Video Codec
Format profile : [email protected]
Format settings : CABAC / 4 Ref Frames
Format settings, CABAC : Yes
Format settings, RefFrames : 4 frames
Codec ID : V_MPEG4/ISO/AVC
Duration : 2 h 19 min
Bit rate : 2 000 kb/s
Width : 1 920 pixels
Height : 816 pixels
Display aspect ratio : 2.35:1
Frame rate mode : Constant
Frame rate : 24.000 FPS
Color space : YUV
Chroma subsampling : 4:2:0
Bit depth : 8 bits
Scan type : Progressive
Bits/(Pixel*Frame) : 0.053
Stream size : 1.93 GiB (84%)
Writing library : x264 core 157 r2935 545de2f

Audio
ID : 2
Format : AC-3
Format/Info : Audio Coding 3
Commercial name : Dolby Digital
Codec ID : A_AC3
Duration : 2 h 19 min
Bit rate mode : Constant
Bit rate : 384 kb/s
Channel(s) : 6 channels
Channel layout : L R C LFE Ls Rs
Sampling rate : 48.0 kHz
Frame rate : 31.250 FPS (1536 SPF)
Bit depth : 16 bits
Compression mode : Lossy
Stream size : 383 MiB (16%)
Language : Hindi
Service kind : Complete Main
Default : Yes
Forced : No

Text
ID : 3
Format : UTF-8
Codec ID : S_TEXT/UTF8
Codec ID/Info : UTF-8 Plain Text
Duration : 2 h 6 min
Bit rate : 40 b/s
Count of elements : 1184
Stream size : 37.9 KiB (0%)
Default : Yes
Forced : No





 :ss:














 :download:









Share this topic on FacebookShare this topic on GoogleShare this topic on MySpaceShare this topic on TwitterShare this topic on Yahoo




Tags:
 

Related Topics

  Subject / Started by Replies Last post
4 Replies
1003 Views
Last post December 16, 2018, 10:15:37 AM
by JackRoSe
0 Replies
256 Views
Last post December 17, 2018, 11:55:10 AM
by shahzaibjaan
1 Replies
207 Views
Last post January 24, 2019, 08:21:13 PM
by PRITTS
0 Replies
115 Views
Last post January 28, 2019, 05:58:30 PM
by Special26
0 Replies
170 Views
Last post February 06, 2019, 09:48:03 AM
by Special26




Back to top