+ ShareSpark.net »  :::: Hollywood Zone » Hollywood Movies (Original Rips) » TeamSSX Hollywood Releases
|- Overboard 2018 480p WEBRip x264 [Eng] YsB TeaM Fl & SSX


Amazon Pantry Offer

Overboard 2018 480p WEBRip x264 [Eng] YsB TeaM Fl & SSX

0 Members and 1 Guest are viewing this topic.

July 18, 2018, 10:01:38 PM
  • Admin
  • Legend Member
  • ****
  • Topic Author
  • Thank You: 655
  • Reputation: 641
  • Activity:
    1%
  • Country: cn
  • Posts: 2394
  • Topics: 521
  • Join Date: Dec 2011
  • ShareSpark Member
  • Expertises:
  • Bollywood Movies
  • PC Applications
  • PC Games
Overboard 2018 480p WEBRip x264 [Eng] YsB TeaM Fl & SSX



:info:


Code: [Select]
General
Complete name               : Overboard 2018 480p WEBRip x264 [Eng] YsB TeaM Fl & SSX.mp4
Format                      : Matroska
Format version              : Version 4 / Version 2
File size                   : 414 MiB
Duration                    : 1 h 52 min
Overall bit rate            : 516 kb/s
Movie name                  : Overboard 2018 480p WEBRip x264 [Eng] YsB TeaM Fl & SSX
Encoded date                : UTC 2018-07-15 17:45:00
Writing application         : mkvmerge v8.1.0 ('Psychedelic Postcard') 64bit
Writing library             : libebml v1.3.1 + libmatroska v1.4.2

Video
ID                          : 1
Format                      : AVC
Format/Info                 : Advanced Video Codec
Format profile              : [email protected]
Format settings, CABAC      : Yes
Format settings, ReFrames   : 3 frames
Codec ID                    : V_MPEG4/ISO/AVC
Duration                    : 1 h 52 min
Bit rate                    : 450 kb/s
Width                       : 848 pixels
Height                      : 352 pixels
Display aspect ratio        : 2.40:1
Frame rate mode             : Constant
Frame rate                  : 23.976 (24000/1001) FPS
Color space                 : YUV
Chroma subsampling          : 4:2:0
Bit depth                   : 8 bits
Scan type                   : Progressive
Bits/(Pixel*Frame)          : 0.063
Stream size                 : 362 MiB (87%)
Title                       : YsB TeaM Fl

Audio
ID                          : 2
Format                      : AC-3
Format/Info                 : Audio Coding 3
Mode extension              : CM (complete main)
Format settings, Endianness : Big
Codec ID                    : A_AC3
Duration                    : 1 h 52 min
Bit rate mode               : Constant
Bit rate                    : 64.0 kb/s
Channel(s)                  : 2 channels
Channel positions           : Front: L R
Sampling rate               : 48.0 kHz
Frame rate                  : 31.250 FPS (1536 spf)
Bit depth                   : 16 bits
Compression mode            : Lossy
Stream size                 : 51.4 MiB (12%)
Title                       : YsB TeaM Fl
Language                    : English
Default                     : Yes
Forced                      : No

Text
ID                          : 3
Format                      : UTF-8
Codec ID                    : S_TEXT/UTF8
Codec ID/Info               : UTF-8 Plain Text
Duration                    : 1 h 48 min
Bit rate                    : 58 b/s
Count of elements           : 1601
Stream size                 : 46.9 KiB (0%)
Title                       : YsB TeaM Fl
Language                    : English
Default                     : No
Forced                      : No

Menu
00:00:00.000                : en:1
00:01:07.000                : en:2
00:10:50.000                : en:3
00:20:31.000                : en:4
00:29:47.000                : en:5
00:39:45.000                : en:6
00:49:30.000                : en:7
01:00:52.000                : en:8
01:11:33.000                : en:9
01:21:51.000                : en:10
01:31:55.000                : en:11
01:45:52.000                : en:12

:ss:







:download:









Torrent file attached.



Thanks.
TeaM FL , TeaM SSX, AnantaRdp



Share this topic on FacebookShare this topic on GoogleShare this topic on MySpaceShare this topic on TwitterShare this topic on Yahoo




 

Related Topics

  Subject / Started by Replies Last post
0 Replies
711 Views
Last post June 03, 2018, 09:27:24 PM
by Pankajmohan11
1 Replies
1379 Views
Last post June 24, 2018, 09:16:51 AM
by honey01
0 Replies
280 Views
Last post July 13, 2018, 11:08:38 AM
by ♥ Mann ♥
0 Replies
220 Views
Last post July 21, 2018, 05:50:29 PM
by ♥ Mann ♥
0 Replies
382 Views
Last post July 21, 2018, 07:08:21 PM
by ♥ Mann ♥




Back to top