+ ShareSpark.net »  :::: Hollywood Zone » Hollywood Movies (Original Rips)
|- King Arthur - Legend of the Sword 2017 (1080p Bluray x265 HEVC 10bit AAC 7.1 Tigole)[S_N]


10% SBI and 10% Discount

King Arthur - Legend of the Sword 2017 (1080p Bluray x265 HEVC 10bit AAC 7.1 Tigole)[S_N]

0 Members and 1 Guest are viewing this topic.

August 28, 2017, 04:21:41 PM
  • Semi Newbie
  • **
  • Topic Author
  • Thank You: 27
  • Reputation: 22
  • Activity:
    0%
  • Country: de
  • Posts: 44
  • Topics: 34
  • Join Date: Jun 2017
  • ShareSpark Member
King Arthur - Legend of the Sword 2017 (1080p Bluray x265 HEVC 10bit AAC 7.1 Tigole)[S_N]




 :info:

General
Format : Matroska
Format version : Version 4 / Version 2
File size : 3.36 GiB
Duration : 2 h 6 min
Overall bit rate : 3 816 kb/s
Movie name : King Arthur: Legend of the Sword
Encoded date : UTC 2017-07-29 14:41:31
Writing application : mkvmerge v12.0.0 ('Trust / Lust') 64bit
Writing library : libebml v1.3.4 + libmatroska v1.4.5

Video
ID : 1
Format : HEVC
Format/Info : High Efficiency Video Coding
Format profile : Main [email protected]@Main
Codec ID : V_MPEGH/ISO/HEVC
Duration : 2 h 6 min
Bit rate : 3 247 kb/s
Width : 1 920 pixels
Height : 800 pixels
Display aspect ratio : 2.40:1
Frame rate mode : Constant
Frame rate : 23.976 (24000/1001) FPS
Color space : YUV
Chroma subsampling : 4:2:0
Bit depth : 10 bits
Bits/(Pixel*Frame) : 0.088
Stream size : 2.86 GiB (85%)
Writing library : x265 2.5+2-18fa144d453e:[Windows][GCC 7.1.0][64 bit] 10bit
Encoding settings : cpuid=1173503 / frame-threads=3 / numa-pools=8 / wpp / no-pmode / no-pme / no-psnr / ssim / log-level=2 / input-csp=1 / input-res=1920x800 / interlace=0 / total-frames=181582 / level-idc=0 / high-tier=1 / uhd-bd=0 / ref=4 / no-allow-non-conformance / no-repeat-headers / annexb / no-aud / no-hrd / info / hash=0 / no-temporal-layers / open-gop / min-keyint=23 / keyint=250 / bframes=4 / b-adapt=2 / b-pyramid / bframe-bias=0 / rc-lookahead=25 / lookahead-slices=4 / scenecut=40 / no-intra-refresh / ctu=64 / min-cu-size=8 / rect / no-amp / max-tu-size=32 / tu-inter-depth=1 / tu-intra-depth=1 / limit-tu=0 / rdoq-level=2 / dynamic-rd=0.00 / no-ssim-rd / signhide / no-tskip / nr-intra=0 / nr-inter=0 / no-constrained-intra / strong-intra-smoothing / max-merge=3 / limit-refs=3 / limit-modes / me=3 / subme=3 / merange=57 / temporal-mvp / weightp / no-weightb / no-analyze-src-pics / deblock=0:0 / sao / no-sao-non-deblock / rd=4 / no-early-skip / rskip / no-fast-intra / no-tskip-fast / no-cu-lossless / no-b-intra / rdpenalty=0 / psy-rd=2.00 / psy-rdoq=1.00 / no-rd-refine / analysis-reuse-mode=0 / no-lossless / cbqpoffs=0 / crqpoffs=0 / rc=abr / bitrate=3247 / qcomp=0.60 / qpstep=4 / stats-write=0 / stats-read=2 / cplxblur=20.0 / qblur=0.5 / ipratio=1.40 / pbratio=1.30 / aq-mode=3 / aq-strength=1.00 / cutree / zone-count=0 / no-strict-cbr / qg-size=32 / no-rc-grain / qpmax=69 / qpmin=0 / no-const-vbv / sar=0 / overscan=0 / videoformat=5 / range=0 / colorprim=2 / transfer=2 / colormatrix=2 / chromaloc=0 / display-window=0 / max-cll=0,0 / min-luma=0 / max-luma=1023 / log2-max-poc-lsb=8 / vui-timing-info / vui-hrd-info / slices=1 / opt-qp-pps / opt-ref-list-length-pps / no-multi-pass-opt-rps / scenecut-bias=0.05 / no-opt-cu-delta-qp / no-aq-motion / no-hdr / no-hdr-opt / no-dhdr10-opt / analysis-reuse-level=5 / scale-factor=0 / refine-intra=0 / refine-inter=0 / refine-mv=0 / no-limit-sao / ctu-info=0
Default : Yes
Forced : No

Audio
ID : 2
Format : AAC
Format/Info : Advanced Audio Codec
Format profile : LC
Codec ID : A_AAC
Duration : 2 h 6 min
Bit rate : 550 kb/s
Channel(s) : 8 channels
Channel positions : Front: L C R, Side: 4, LFE
Sampling rate : 48.0 kHz
Frame rate : 46.875 FPS (1024 spf)
Compression mode : Lossy
Delay relative to video : 20 ms
Stream size : 496 MiB (14%)
Language : English
Default : Yes
Forced : No

Text #1
ID : 3
Format : VobSub
Muxing mode : zlib
Codec ID : S_VOBSUB
Codec ID/Info : Picture based subtitle format used on DVDs
Duration : 2 h 4 min
Bit rate : 5 109 b/s
Count of elements : 1452
Stream size : 4.54 MiB (0%)
Language : English
Default : No
Forced : No

Text #2
ID : 4
Format : VobSub
Muxing mode : zlib
Codec ID : S_VOBSUB
Codec ID/Info : Picture based subtitle format used on DVDs
Duration : 2 h 4 min
Bit rate : 3 495 b/s
Count of elements : 1223
Stream size : 3.12 MiB (0%)
Language : French
Default : No
Forced : No

Text #3
ID : 5
Format : VobSub
Muxing mode : zlib
Codec ID : S_VOBSUB
Codec ID/Info : Picture based subtitle format used on DVDs
Duration : 2 h 4 min
Bit rate : 4 278 b/s
Count of elements : 1255
Stream size : 3.82 MiB (0%)
Language : Portuguese
Default : No
Forced : No

Text #4
ID : 6
Format : VobSub
Muxing mode : zlib
Codec ID : S_VOBSUB
Codec ID/Info : Picture based subtitle format used on DVDs
Duration : 2 h 4 min
Bit rate : 4 128 b/s
Count of elements : 1266
Stream size : 3.68 MiB (0%)
Language : Spanish
Default : No
Forced : No

Menu
00:00:00.000 : en:Chapter 01
00:12:43.220 : en:Chapter 02
00:21:05.347 : en:Chapter 03
00:32:32.659 : en:Chapter 04
00:43:09.378 : en:Chapter 05
00:56:47.987 : en:Chapter 06
01:06:48.546 : en:Chapter 07
01:14:13.031 : en:Chapter 08
01:23:44.394 : en:Chapter 09
01:36:36.791 : en:Chapter 10
01:46:57.244 : en:Chapter 11
01:58:58.798 : en:Chapter 12


 :ss:







 :download:

Share this topic on FacebookShare this topic on GoogleShare this topic on MySpaceShare this topic on TwitterShare this topic on Yahoo

« Last Edit: August 28, 2017, 04:21:48 PM by s543210 »


Thanks given by:


August 28, 2017, 05:06:47 PM
Reply #1
  • Semi Newbie
  • **
  • Thank You: 2
  • Reputation: 2
  • Activity:
    0%
  • Country: pk
  • Posts: 8
  • Topics: 2
  • Join Date: Aug 2017
  • ShareSpark Member

October 31, 2018, 12:52:02 PM
Reply #2
  • Newbie
  • **
  • Thank You: 0
  • Reputation: 0
  • Activity:
    0.2%
  • Country: in
  • Posts: 1
  • Topics: 0
  • Join Date: Oct 2018
  • ShareSpark Member
Link Is Dead...

File Not Found....

Please Re-Upload...!!!


Thank You.

Tags:
 

Related Topics





Back to top